&title=ダンスロボットダンス [DX]
&wholebpm=190
&artist=ナユタン星人
&des=某S氏
&shortid=10690
&genre=niconicoボーカロイド
&cabinet=DX
&version=maimai DX Splash
&chartconverter=Neskol
&lv_2=3
&des_2=
&lv_3=7
&des_3=
&lv_4=9
&des_4=隅田川星人
&lv_5=12+
&des_5=某S氏
&des_6=
&inote_2=
(190){1},
{1},
{1},
{1},
{1},
{1},
{1},
{1},
{1},
{2}4,4,
{1}4,
{2}5,5,
{1}5,
{2}4,4,
{1}4/5,
{2}5,5,
{1}4/5,
{2}3,3,
{1}3,
{2}2,2,
{1}2,
{2}1,1,
{1}1,
{2}8,8,
{1}1x/8x,
{1}1h[1:1],
{1},
{1}8h[1:1],
{1},
{2}7,7,
{1}7,
{2}6,6,
{1}6,
{2}5,5,
{1}5,
{2}4,4,
{1}4b/5b,
{1}B3,
{1}B6,
{1}C1,
{1}B1/B8,
{1}B7,
{1}B2,
{1}C1hf[1:1],
{1},
{2}1,1,
{2}2,2,
{2}3,3,
{1}4/5,
{2}5,5,
{2}6,6,
{2}7,7,
{1}1x/8x,
{2}8,8,
{2}7,7,
{2}6,6,
{1}4/5,
{1}4h[2:1],
{1}5h[2:1],
{2}4,4,
{1}4b/5b,
{1}3h[2:1],
{2}4/5,4/5,
{1}6h[2:1],
{2}4/5,4/5,
{1}3h[2:1]/5h[2:1],
{2}4/5,4/5,
{1}4h[2:1]/6h[2:1],
{2}4/5,4/5,
{2}3,3,
{1}3,
{2}2,2,
{1}2,
{1}1-5[4:3],
{1},
{1}8-4[4:3],
{1},
{1}1-5[4:3],
{1},
{1}8-4[4:3],
{1},
{2}3,3,
{2}4,4,
{2}5,5,
{1}5/6,
{2}6,6,
{2}5,5,
{2}4,4,
{1}3x/4x,
{2}2,2,
{2}1,1,
{2}8,8,
{1}1/8,
{1}8h[2:1],
{1}1h[2:1],
{2}8,8,
{1}1b/8b,
{1}2h[2:1],
{4}8,8,1/8,,
{1}7h[2:1],
{4}1,1,1/8,,
{1}2h[2:1]/8h[2:1],
{4}8,8,1/8,,
{1}1h[2:1]/7h[2:1],
{4}1,1,1/8,,
{2}7,7,
{2}6,6,
{2}5,5,
{1}4/5,
{2}4,4,
{2}3,3,
{2}2,2,
{2}1,1,
{1}8h[8:7],
{1},
{1},
{1},
E
&inote_3=
(190){1},
{2}3x,3,
{2}3,3/4,
{2}6,6,
{2}6,5/6,
{2}3,3/4,
{2}6,5/6,
{2}3,3/4,
{2}2,1x/8x,
{4}2,2,1/2,,
{4}7,7,7/8,,
{4}2,2,1/2,,
{4}8,8,1/7,,
{4}6,6,5/6,,
{4}3,3,3/4,,
{4}6,6,5/6,,
{4}4,5,3/6,,
{2}3xh[2:1],4,
{2}6h[2:1],5,
{4}3,3,4,4,
{4}5,5,4/6,,
{2}7xh[2:1],8,
{2}2h[2:1],1,
{4}7,7,8,8,
{1}1-5[8:3],
{4}6,6,5/6,,
{4}3,3,3/4,,
{4}6,6,5/6,,
{4}4,5,3/6,,
{2}2xh[2:1],1,
{2}7h[2:1],8,
{4}2,2,1,1,
{4}8,8,1/7,,
{2}6xh[2:1],5,
{2}3h[2:1],4,
{4}6,6,5,5,
{4}4x/5x,4x/5x,3x/6x,,
{1}4x/5x-8[8:3],
{1}1-4[8:3],
{1}5-8[8:3],
{1}1-4[8:3],
{1}6x-3[8:3],
{1}2-6[8:3],
{1}7-3[8:3],
{2}2x,1b/8b,
{4}2,2,1/2,1/2,
{4}7,7,7/8,7/8,
{4}6,6,5,5,
{4}4,4,3/5,,
{4}3,3,3/4,3/4,
{4}6,6,5/6,5/6,
{4}7,7,8,8,
{4}1,1,2/7,,
{4}7,7,7/8,7/8,
{4}2,2,1/2,1/2,
{4}3,3,4,4,
{4}5,5,4/6,,
{1}7<4[8:3],
{1}3>8[8:3],
{1}7<4[8:3],
{4}3,4,3/5,,
{4}2x,2,1,1,
{4}8,8,1/7,,
{4}6,6,5,5,
{4}4,4,3/5,,
{4}2,2,1,1,
{4}8,8,1/7,,
{4}6,6,5,5,
{4}4x/5x,4x/5x,3x/6x,,
{4}2,2,1,,
{4}7,7,8,,
{4}2,2,1,,
{4}8,8,2/7,,
{1}B1,
{1}B8,
{1}B2,
{1}B7,
{1}B3,
{1}B6,
{1}B4,
{1}C1,
{4}7,7,7/8,7/8,
{4}2,2,1/2,1/2,
{4}3,3,4,4,
{4}5,5,4/6,,
{4}6,6,5/6,5/6,
{4}3,3,3/4,3/4,
{4}2,2,1,1,
{4}8,8,2/7,,
{4}2,2,1/2,1/2,
{4}7,7,7/8,7/8,
{4}6,6,5,5,
{4}4,4,3x>8[8:3],,
{2},7x<4[8:3],
{2},3h[2:1],
{2}4h[2:1],5h[2:1],
{1}6>3[8:3],
{4}2,2,1,1,
{4}8,8,1/7,,
{4}6,6,5,5,
{4}4,4,3/5,,
{4}2,2,1,1,
{4}8,8,1/7,,
{4}6,6,5,5,
{4}4/5,4/5,3b/6b,,
{4}7,7,7/8,,
{4}2,2,1/2,,
{4}7,7,7/8,,
{4}1,1,2/8,,
{4}3,3,3/4,,
{4}6,6,5/6,,
{4}3,3,3/4,,
{4}5,5,4xh[8:11]/6xh[8:11],,
{1},
{1},
{1},
E
&inote_4=
(190){1},
{4}3h[1:2],4,,4,
{4},4,,5,
{4}7h[1:2],5,,5,
{4},5,,4,
{4}2h[1:2],4,,4,
{4},4,,5,
{4}7h[4:5],5,,5,
{4},4,3/5,2/6,
{4}3,3/4,6,5/6,
{4}3,2/4,6,5/7,
{4}3,3/4,6,5/6,
{4}3,2/4,6,5/7,
{8}4,,4/5,,3,4,3,,
{4}6,5/7,3,2/4,
{8}5,,4/5,,6,5,6,,
{4}4/5,4/5,3/6,3b/6b,
{4}2x/5x,,2h[1:1],3,
{4}1x,8x,7x,4/6,
{8}7h[2:1],,5,,3h[4:1],,4x,4x,
{8},3x/4x,,2x/5x,,3,3,,
{4}4x/7x,,6h[1:1],5,
{4}7x,8x,1x,2/5,
{4}2h[2:1],4,7h[2:1],5,
{1}6<3[2:1],
{8}3,,2/4,,3,4,3,,
{4}3/4,2,1/8,7,
{8}6,,5/7,,6,5,6,,
{4}5/6,7,1/8,2,
{4}3x/7x,,7h[1:1],6,
{4}8x,1x,2x,3/5,
{8}2h[2:1],,4,,7h[4:1],,5,5x,
{8},3x/4x,,2x/5x,,3,3,,
{4}2x/5x,,3h[1:1],4,
{4}2x,1x,8x,5/7,
{4}7h[2:1],6,2h[4:1],3,
{4}4x/5x,3x/6x,2x/7x,,
{2}B1/B8,B2/B3,
{4}B1/B8,E3,B4/B5,,
{4}B1/B8,E3,E5,E7,
{4}E1,C1,B4/B5,,
{2}B6/B7,C1/E1,
{4}B6/B7,C1,B2/B3,,
{4}B6/B7,B2/B3,B1/B8,B4/B5,
{4}3x/6x,2x/7x,1x/8x,,
{4}1/2,3,4/5,6,
{4}7/8,6,4/5,3,
{4}1h[4:1],3h[4:1],5h[4:1],7>4[2:1],
{4},,,2x/7x,
{4}6h[4:1],8,1/7,2/8,
{4}3h[4:1],1,2/8,1/7,
{4}5/6,5-1[4:1]/6,,,
{8}2/4,,5/7,,4,5,4,,
{4}7/8,6,4/5,3,
{4}1/2,3,4/5,6,
{4}7h[4:1],5h[4:1],4h[4:1],2h[4:1],
{8}8,,3/7,,1/2,1/2>5[4:1],,,
{8},,,,7/8,7<4[4:1]/8,,,
{4},3x,2x,1x,
{4}7/8,7/8,1h[4:1]/6h[4:1],,
{1}8V64[8:3]*V24[8:3],
{4}3/7,2/6,3/7,2/6,
{8}3/7,,2/6,,8,8,1,,
{4}2/6,3/7,2/6,3/7,
{8}2/6,,3/7,,5,5,4,,
{4}3/8,1/6,3/8,1/6,
{8}3/8,,1/6,,7,7,8,,
{4}1/6,3/8,1/6,3/8,
{4}2/7,3/6,1/8,2b/7b,
{8}3,,2/4,,3,4,3,,
{4}3/4,2,1/8,2/7,
{8}6,,5/7,,6,5,6,,
{4}4/5,4/5,3/6,,
{4}E5,,B7,B8,
{4}B1,B2,C1,,
{4}E4/E6,,B2,B1,
{4}B8,B7,C1,,
{4}B4/B5/E5,,B7,B8,
{4}B1,B2,C1,,
{4}B4/E4/B5/E6,,B2,B1,
{4}B8,B7,C1f,,
{4}7x/8x,6,4/5,3,
{4}1/2,3,4/5,6,
{4}8h[4:1],6h[4:1],4h[4:1],2<5[2:1],
{4},,,2x/7x,
{4}3h[4:1],1,2/8,1/7,
{4}6h[4:1],8,1/7,2/8,
{4}4/5,4-1[4:1]/5-8[4:1],,,
{8}2/7,,3/6,,4,5,4,,
{4}1/2,3,4/5,6,
{4}7/8,6,4/5,3,
{4}2h[4:1],4h[4:1],5h[4:1],7h[4:1],
{8}1,,2/6,,7/8,7/8p3[4:1],,,
{8},,,,1/2,1q6[4:1]/2,,,
{4},7x,8x,1x,
{4}1/2,1/2,3h[4:1]/8h[4:1],,
{1}1w5[8:3],
{4}3/7,2/6,3/7,2/6,
{8}3/7,,2/6,,8,8,1,,
{4}2/6,3/7,2/6,3/7,
{8}2/6,,3/7,,5,5,4,,
{4}3/8,1/6,3/8,1/6,
{8}3/8,,1/6,,7,7,8,,
{4}1/6,3/8,1/6,3/8,
{4}2/7,3/6,1/8,2b/7b,
{8}3,,2/5,,3,4,3,,
{4}3/4,2,1/8,2/7,
{8}6,,4/7,,6,5,6,,
{4}5/6,7,1/8,2/7,
{8}3/4,,2/5,,3,4,3,,
{4}3/4,2,1/8,2/7,
{8}5/6,,4/7,,6,5,6,,
{8}4/7,4/7,,2/6,,3h[8:9]/7h[8:9],,,
{8},,,,,,,2b/6b,
{1},
{1},
{1},
E
&inote_5=
(190){1},
{8}4h[4:1],,5,,,4,5,,
{8}6h[4:1],,5,,,6,5,,
{8}3h[4:1],,4,,,3,4,,
{4}5h[4:1],4,4/5,4/5,
{8}3h[4:1],,2,3,,5,4,,
{8}6h[4:1],,7,6,,4,5,,
{8}2h[4:1],,1,2,,8,1,,
{16}7h[4:1],,,,1,,,,1,8,1,8,1,8,1,8,
{4}1-3[8:1],8-6[8:1],1-3[8:1],8-6[8:1],
{4}4-2[8:1],5-7[8:1],4-2[8:1],5-7[8:1],
{4}1-3[8:1],8-6[8:1],1-3[8:1],8-6[8:1],
{8}4-2[8:1],,5-7[8:1],,1,1x,1x/8x,,
{4}8-6[8:1],4-2[8:1],8-6[8:1],4-2[8:1],
{4}5-7[8:1],1-3[8:1],5-7[8:1],1-3[8:1],
{4}8-6[8:1],4-2[8:1],8-6[8:1],4-2[8:1],
{8}5-7[8:1],,1-3[8:1],,8,8x,1xh[16:3]/8xh[16:3],,
{24}B1/B8/E8,B2/B7,B3/B6,B4/B5/E6,,,,,,1,,,1h[4:1],,,,,,7,,,7/8,,,
{8},3/4,,7/8,,2,1/2,,
{8}2,2,3,3,4h[4:1],,5,5x/6x,
{8},3x/4x,,1x/8x,,1h[16:5],8h[16:3],,
{24}E2/E8,B2/B7,C1,E5,,,,,,8,,,8h[4:1],,,,,,2,,,1/2,,,
{8},7/8,,1/2,,7,7/8,,
{8}7,7,6,6,5,5,4,4,
{4}3h[4:1]/5h[4:1],,3/4,1-3[8:1]/5,
{4}5-7[8:1],4-2[8:1],8-6[8:1],1-3[8:1],
{4}5-7[8:1],4-2[8:1],8-6[8:1],1-3[8:1],
{4}5-7[8:1],4-2[8:1],8-6[8:1],1-3[8:1],
{4}5-7[8:1],4-2[8:1],8h[16:7],1h[16:3],
{24}E8,B7,B6,B4/E4/B5/E6,,,,,,2,,,2h[4:1],,,,,,8,,,3-8[8:1]/7-4[8:1],,,
{8},,,2/6,,8,1,8,
{8}1,1,7,7,3,3,5,4x/6x,
{8},3x/7x,,1x/5x,,8h[16:5],1h[16:3],,
{24}E2,B2,B3,E4,,,,,,7,,,7h[4:1],,,,,,1,,,2-5[8:1]/6-1[8:1],,,
{8},,,3/7,,1,8,1,
{8}2/8,2,2/6,6,4/6,4,4/5,,
{4}1b/8b,2b/7b,3b/6b,,
{2}B1/E1/B8,E3/E7,
{4}B1/E1/B8,E3/E7,B4/B5/E5,,
{4}B1/E1/B8,E3/E7,B4/B5/E5,B2/B3/B6/B7,
{4}B1/E1/B8,E3/E7,B4/B5/E5,,
{2}B7/E7,E1/E5,
{4}B7/E7,E1/E5,B3/E3,,
{4}B7/E7,B3/E3,E1/B8,B4/E5,
{4}1v4[8:1]/7v4[8:1],1-3[8:1]/7-5[8:1],1b/7b,,
{4}1>5[4:1],5<1[4:1],1>5[4:1],5,
{4}8<4[4:1],4>8[4:1],8<4[4:1],4,
{4}1h[4:1],3h[4:1],5h[4:1],7p4[2:1],
{4}2h[2:1],,,1/8,
{4}4>8[4:1],8<4[4:1],4>8[4:1],8,
{4}5<1[4:1],1>5[4:1],5<1[4:1],1,
{4}4h[4:1],6h[4:1],8h[4:1],1,
{16}2/7,,7,8,7,,2,1,2,,8,,1/7,,2,,
{2}3qq5[4:1],6pp4[4:1],
{2}2pp8[4:1],7qq1[4:1],
{4}2h[4:1],4h[4:1],5h[4:1],7s3[8:3],
{8},,,,1,1>7[8:3],,5h[8:3],
{8},,,,8,8<2[8:3],,4h[8:3],
{4},,4,4/5,
{4}3/4,1/2,7/8,5/6p3[2:1],
{4}C1f,,,1>4[8:1]/8,
{4}1/8<5[8:1],1>4[8:1]/8,1/8<5[8:1],1>4[8:1]/8,
{4}1b/8,5/7,1/2,7/8<5[8:1],
{4}1>4[8:1]/8,1/8<5[8:1],1>4[8:1]/8,1/8<5[8:1],
{4}1/8b,2/4,5/6,3/4>1[8:1],
{4}4/5<8[8:1],4>1[8:1]/5,4/5<8[8:1],4>1[8:1]/5,
{4}4b/5,6/8,3/4,5<8[8:1]/6,
{4}4>1[8:1]/5,4/5<8[8:1],4>1[8:1]/5,4/5<8[8:1],
{4}4/5b,1/3,7/8,1x/2x,
{4}2/6,B4/B8,2/6,B4/B8,
{4}1/5,B3/B7,1h[4:1]/5,8,
{4}3/7,B1/B5,3/7,B1/B5,
{4}4/8,B2/B6,4/8h[4:1],1,
{32}E1,E8,C1,E5,,,,,,,,,2,,,,2h[4:1],,,,,,,,1,,,,,,,,
{8}3,4,3-7[8:1]/5-1[8:1],,,,,,
{384}E1,,,,,E8,E2,,,,,,B2,,,,,,C1,,,,,,B6,,,E6,B5,B4,E4,,,,,,,,,,,,,,,,,,,,,,,,,,,,,,,,,,,,,,,,,,,,,,,,,,,,,,,,,,,,,,,,,,,,,,,,,,,,,,,,,,,,,,,,,,,,,,,,,,,,,,,,,,,,,,,,,,7,,,,,,,,,,,,,,,,,,,,,,,,,,,,,,,,,,,,,,,,,,,,,,,,7h[4:1],,,,,,,,,,,,,,,,,,,,,,,,,,,,,,,,,,,,,,,,,,,,,,,,,,,,,,,,,,,,,,,,,,,,,,,,,,,,,,,,,,,,,,,,,,,,,,,,8,,,,,,,,,,,,,,,,,,,,,,,,,,,,,,,,,,,,,,,,,,,,,,,,,,,,,,,,,,,,,,,,,,,,,,,,,,,,,,,,,,,,,,,,,,,,,,,,
{4}5/6,4-1[8:1]/5-8[8:1],,,
{384}E1,,,,,E2,E8,,,,,,B2,,,,,,C1,,,,,,B3,,,,,E4,E6,,,,,,E5,,,,,,,,,,,,,,,,,,,,,,,,,,,,,,,,,,,,,,,,,,,,,,,,,,,,,,,,,,,,,,,,,,,,,,,,,,,,,,,,,,,,,,,,,,,,,,,,,,,,,,,,,,,,7,,,,,,,,,,,,,,,,,,,,,,,,,,,,,,,,,,,,,,,,,,,,,,,,7h[4:1],,,,,,,,,,,,,,,,,,,,,,,,,,,,,,,,,,,,,,,,,,,,,,,,,,,,,,,,,,,,,,,,,,,,,,,,,,,,,,,,,,,,,,,,,,,,,,,,3,,,,,,,,,,,,,,,,,,,,,,,,,,,,,,,,,,,,,,,,,,,,,,,,,,,,,,,,,,,,,,,,,,,,,,,,,,,,,,,,,,,,,,,,,,,,,,,,
{1}4V61[4:1]/5V38[4:1],
{384}E1,,,,,,,,B8,,,,,,,,B7,,,,,,,E7,E3,C1,,,,,,,,,,,E5,,,,,,,,,,,,,,,,,,,,,,,,,,,,,,,,,,,,,,,,,,,,,,,,,,,,,,,,,,,,,,,,,,,,,,,,,,,,,,,,,,,,,,,,,,,,,,,,,,,,,,,,,,,,2,,,,,,,,,,,,,,,,,,,,,,,,,,,,,,,,,,,,,,,,,,,,,,,,2h[4:1],,,,,,,,,,,,,,,,,,,,,,,,,,,,,,,,,,,,,,,,,,,,,,,,,,,,,,,,,,,,,,,,,,,,,,,,,,,,,,,,,,,,,,,,,,,,,,,,8<5[8:1],,,,,,,,,,,,,,,,,,,,,,,,,,,,,,,,,,,,,,,,,,,,,,,,,,,,,,,,,,,,,,,,,,,,,,,,,,,,,,,,,,,,,,,,,,,,,,,,
{32}8x>3[8:1],,,,,,,,8xw4[8:1],,,,,,,,8x,B8,C1f,B4,,,,,,,,,,,,,
{2}2-6[8:1]/7-1[8:1],3-1[8:1]/8-4[8:1],
{4}7/8,5/6,3/4,1h[4:1]/2,
{4}8h[4:1],7h[4:1],6h[4:1],5p2[2:1],
{4}4h[2:1],,,1/8,
{2}3-7[8:1]/6-4[8:1],2-4[8:1]/5-1[8:1],
{4}7/8,1/2,3/4,5h[2:1]/6h[4:1],
{4},6q3[4:1],1h[4:1],,
{16}2/7,,2,1,2,,7,8,7,,1,,2/8,,7,,
{2}2-5[8:1]/6v1[8:1],4v1[8:1]/8-5[8:1],
{2}3v8[8:1]/7-4[8:1],1-4[8:1]/5v8[8:1],
{4}2-6[8:1],1-5[8:1],8-4[8:1],7<2[4:1],
{8}3h[4:1],,,,6,6<4[8:3],,1h[8:3],
{8},,,,3,3>5[8:3],,8h[8:3],
{4},,8,1/8,
{4}7/8,1/2,3/4,5/6p3[2:1],
{4}C1f,,,2>4[8:1]/8,
{4}2/8<6[8:1],2>4[8:1]/8,2/8<6[8:1],2>4[8:1]/8,
{4}2b/8h[4:3],6,4,6<8[8:1],
{4}4>2[8:1]/6,4/6<8[8:1],4>2[8:1]/6,4/6<8[8:1],
{4}4h[4:3]/6b,1,7,1>3[8:1],
{4}1/7<5[8:1],1>3[8:1]/7,1/7<5[8:1],1>3[8:1]/7,
{4}1b/7h[4:3],5,3,5<7[8:1],
{4}3>1[8:1]/5,3/5<7[8:1],3>1[8:1]/5,3/5<7[8:1],
{4}3/5b,4/8,2/6,1x/8x,
{4}B6/2,B8/4,B6/2,B8/4,
{4}B5/1,B7/3,B5/1,B7/3,
{4}B2/6,B4/8,B2/6,B4/8,
{4}B1/5,B3/7,B1/5,B3/7,
{4}B6/2,B8/4,B5/1,B7/3,
{4}B6/2,B8/4,B5/1,B7/3,
{4}B2/6,B4/8,B1/5,B3/7,
{4}B2/6,B4/8,B1/5,3h[1:1]/7h[1:1],
{8},,,,,,,2x/6x,
{1},
{1},
{1},
E
